<svg xmlns="http://www.w3.org/2000/svg">
<defs>
<font
   id="FontID1"
   fullFontName="Great Vibes"
   fontVariant="normal"
   fontWeight="400"
   horiz-origin-x="0"
   horiz-origin-y="0"
   horiz-adv-x="1024"
   vert-origin-x="512"
   vert-origin-y="768"
   vert-adv-y="1024">
	<font-face
   font-family="Great Vibes"
   id="font-face2499">
	</font-face>
   <missing-glyph
   id="missing-glyph2503"><path
     d="M0 0z"
     id="path2501" /></missing-glyph>
   <glyph
   unicode=" "
   horiz-adv-x="595"
   id="glyph2507"><path
     d="M617 134"
     id="path2505" /></glyph>
   <glyph
   unicode="J"
   horiz-adv-x="2221"
   id="glyph2511"><path
     d="M2737 1623l-98 -18c-120,-205 -233,-480 -343,-823 -40,-131 -98,-281 -174,-449 -74,-171 -159,-327 -251,-470 -122,-193 -287,-352 -495,-477 -205,-126 -395,-199 -566,-223 -77,-10 -165,-16 -266,-16 -98,0 -202,19 -309,52 -165,55 -277,147 -338,272 -28,59 -40,126 -40,205 0,80 18,172 61,276 27,69 79,136 152,197 73,62 131,92 174,95 18,0 28,-3 28,-9 -3,-6 -13,-15 -31,-24 -49,-19 -104,-65 -162,-132 -61,-67 -100,-134 -118,-201 -19,-70 -31,-122 -31,-159 0,-110 31,-202 91,-269 40,-49 92,-89 153,-125 61,-37 128,-62 199,-77 104,-18 186,-30 247,-30 61,0 117,6 162,18 107,24 208,61 303,116 98,52 184,113 260,174 77,65 150,144 223,239 77,92 138,177 190,253 49,76 104,168 159,275 92,174 186,376 284,603 120,272 242,504 367,700 -214,-37 -431,-113 -651,-230 -110,-61 -208,-137 -288,-229 -100,-116 -152,-241 -152,-373 0,-73 15,-128 52,-168 33,-40 70,-61 107,-61 39,0 82,9 128,24 46,18 86,49 122,89 58,67 89,144 89,232 0,37 -6,61 -15,74 -19,12 -22,24 -6,33 18,9 36,6 55,-15 15,-34 21,-73 21,-119 0,-43 -15,-95 -49,-153 -58,-98 -137,-165 -235,-199 -46,-15 -92,-24 -132,-24 -70,0 -131,24 -186,67 -71,58 -107,137 -107,235 0,126 45,242 134,358 67,86 147,159 239,214 91,58 192,107 309,153 186,70 388,122 605,150 18,31 46,67 83,110 36,40 67,64 91,73 25,7 46,13 62,13 52,0 79,-25 79,-71 -3,-39 -18,-73 -52,-94 -31,-22 -76,-43 -134,-62zm70 153c-3,0 -6,-3 -9,-3 -3,-3 -10,-6 -16,-12 -9,-3 -15,-9 -21,-12 -6,-6 -12,-12 -21,-22 -10,-9 -16,-18 -22,-21 -3,-6 -12,-15 -21,-25 -9,-9 -16,-15 -19,-18 107,18 159,46 156,86 -3,18 -12,27 -27,27z"
     id="path2509" /></glyph>
   <glyph
   unicode="S"
   horiz-adv-x="2072"
   id="glyph2515"><path
     d="M2072 1561c0,53 -24,104 -72,151 -73,68 -169,102 -294,102 -109,0 -230,-23 -362,-70 -68,-25 -127,-59 -179,-102 -78,-68 -117,-134 -117,-202 0,-92 58,-172 173,-245 42,-25 130,-68 259,-127 130,-60 224,-107 283,-143 92,-55 154,-115 188,-179 36,-61 53,-121 53,-174 0,-77 -26,-155 -77,-234 -89,-143 -219,-266 -391,-367 -198,-119 -436,-179 -715,-179 -268,0 -481,68 -641,204 -121,104 -182,238 -182,401 0,105 38,220 112,345 77,126 170,215 281,268 23,9 40,11 51,9 13,-2 2,-17 -28,-45 -66,-51 -119,-109 -159,-172 -85,-134 -130,-281 -130,-439 0,-104 30,-195 89,-274 105,-137 286,-218 543,-235 28,-5 72,-5 130,-5 57,0 136,11 234,30 100,21 193,56 287,102 198,104 326,240 383,406 19,49 28,95 28,142 0,105 -47,196 -141,275 -51,40 -153,93 -308,161 -156,66 -262,117 -315,152 -117,80 -177,174 -177,283 0,95 53,189 160,278 151,130 366,194 642,194 132,0 237,-19 320,-60 82,-38 131,-95 151,-174 2,-15 4,-32 4,-47 0,-60 -28,-113 -83,-162 -38,-29 -90,-53 -153,-72 -28,-9 -45,-4 -47,8 -2,22 17,32 57,37 75,10 119,46 136,110 5,17 7,34 7,49z"
     id="path2513" /></glyph>
   <glyph
   unicode="k"
   horiz-adv-x="834"
   id="glyph2519"><path
     d="M724 620c0,43 -21,61 -61,61 -61,0 -134,-33 -214,-104 -79,-70 -147,-143 -202,-220 -21,-43 -40,-101 -55,-168 -15,-67 -21,-113 -21,-138 0,-27 3,-42 12,-51l-144 0c-24,0 -30,21 -18,61 12,39 27,85 49,131 18,49 43,104 73,165 31,61 52,110 64,141 -125,-239 -204,-373 -240,-410 -15,-12 -25,-9 -25,15 0,4 3,10 7,16 51,70 158,263 320,575 159,312 272,517 336,614 52,74 101,114 150,114 0,0 3,0 3,0l12 0c0,0 15,-4 40,-7 24,-6 46,-6 58,-3 -58,-42 -138,-140 -235,-296 -101,-153 -181,-288 -239,-404 -58,-116 -95,-205 -116,-263 140,171 263,278 376,321 52,15 92,25 122,25 68,0 101,-28 101,-86 0,-18 -3,-37 -9,-61 -21,-58 -67,-110 -135,-156 -67,-49 -137,-77 -220,-83 -18,-43 -27,-82 -27,-119 0,-37 6,-67 12,-98 18,-73 52,-119 104,-134 12,-3 21,-7 34,-7 42,0 91,28 149,83 49,52 111,156 187,315 12,18 18,25 24,18 7,-6 10,-12 10,-18 0,-6 -10,-37 -34,-92 -21,-52 -55,-113 -95,-177 -89,-132 -186,-195 -290,-195 -65,0 -117,18 -150,54 -52,52 -77,120 -77,205 0,43 13,86 34,132 24,42 52,67 83,70 3,0 9,0 12,0 55,0 107,21 159,61 49,43 76,80 76,113z"
     id="path2517" /></glyph>
   <glyph
   unicode="n"
   horiz-adv-x="770"
   id="glyph2523"><path
     d="M825 755c-189,-333 -284,-548 -284,-648 0,-40 15,-62 46,-62 76,0 183,132 315,398 9,21 18,31 27,24 9,-3 12,-9 12,-18 0,-6 -3,-15 -9,-27 -79,-163 -150,-276 -205,-340 -55,-61 -113,-91 -168,-91 -55,0 -98,21 -128,64 -16,21 -22,45 -22,82 0,34 6,77 22,125 15,49 58,129 128,239 15,28 25,49 25,64 0,19 -13,25 -40,25 -25,0 -77,-34 -150,-104 -110,-101 -217,-251 -318,-453 -9,-15 -21,-27 -31,-30 -12,-3 -33,-6 -69,-9 -34,0 -55,-3 -64,-9 24,48 70,149 143,299 128,269 214,422 253,462 19,18 43,27 77,27 6,0 21,-3 46,-9 24,-3 43,-3 55,0 -55,-31 -147,-174 -279,-434 74,88 138,162 199,214 58,52 129,101 211,147 83,46 144,67 184,67 9,0 15,0 24,-3z"
     id="path2521" /></glyph>
   <glyph
   unicode="d"
   horiz-adv-x="844"
   id="glyph2527"><path
     d="M617 134c0,-49 19,-73 58,-73 74,0 169,119 288,361 6,9 9,18 12,27 3,9 9,15 18,18 10,3 16,0 19,-6 3,-6 0,-18 -6,-33 -123,-285 -245,-428 -370,-428 -43,0 -77,18 -101,55 -25,36 -37,73 -37,110 0,36 3,67 12,97 -88,-146 -165,-229 -229,-247 -19,-9 -37,-12 -55,-12 -19,0 -34,3 -52,6 -74,21 -113,79 -113,180 0,67 18,141 52,223 36,83 82,162 146,236 65,76 138,125 227,153 33,9 70,15 116,15 43,0 92,-15 144,-43 107,199 195,379 269,548 21,49 43,82 61,97 21,13 40,22 58,22 18,0 28,0 34,0 3,0 18,-3 43,-6 24,-3 45,-6 58,-3 -34,-34 -129,-190 -282,-471 -192,-358 -309,-597 -348,-716 -16,-46 -22,-82 -22,-110zm110 603c-18,21 -46,30 -82,30 -37,0 -86,-27 -150,-79 -104,-86 -190,-193 -257,-318 -43,-83 -67,-150 -67,-205 0,-25 6,-46 15,-68 12,-18 28,-27 49,-27 52,0 116,52 193,159 76,107 177,278 299,508z"
     id="path2525" /></glyph>
   <glyph
   unicode="o"
   horiz-adv-x="770"
   id="glyph2531"><path
     d="M550 804c110,0 168,-71 168,-211 0,-64 -18,-135 -52,-208 -43,-98 -107,-190 -192,-269 18,-40 55,-58 107,-58 42,0 82,21 119,61 46,49 76,88 98,125 18,37 33,64 42,80 10,18 22,39 37,73 15,31 25,49 28,58 3,6 6,9 15,9 15,0 21,-3 21,-15 0,-6 0,-12 -3,-18l-15 -31c-9,-21 -15,-37 -18,-46 -6,-9 -16,-27 -25,-49 -12,-24 -21,-43 -30,-58 -10,-12 -22,-30 -34,-55 -15,-21 -28,-40 -40,-55 -12,-12 -27,-27 -43,-46 -18,-15 -33,-30 -48,-40 -37,-21 -74,-33 -108,-33 -64,0 -113,21 -146,61 -71,-52 -138,-79 -196,-79 -113,0 -168,70 -168,211 0,64 15,134 49,207 46,107 113,199 195,273 83,76 163,113 239,113zm24 -71c-42,0 -91,-27 -146,-82 -58,-55 -107,-132 -153,-226 -52,-111 -80,-202 -80,-273 0,-70 28,-104 80,-104 39,0 82,22 128,62 -24,36 -37,73 -37,113 4,67 31,98 83,98 18,0 37,-7 49,-19 12,-15 18,-27 18,-40 0,-12 0,-24 -3,-36 25,40 55,95 89,165 40,76 58,153 58,229 0,77 -27,113 -86,113z"
     id="path2529" /></glyph>
   <glyph
   unicode="b"
   horiz-adv-x="793"
   id="glyph2535"><path
     d="M709 626c0,86 -34,129 -107,129 -6,0 -12,0 -18,0 -28,-3 -43,3 -49,18 -3,12 3,22 21,28 18,3 40,3 61,0 80,-13 132,-49 162,-110 19,-40 31,-77 31,-114 0,-131 -49,-263 -147,-388 -95,-128 -220,-195 -373,-195 -58,0 -104,18 -138,48 -36,34 -55,77 -55,129 0,64 37,174 110,327 -125,-239 -204,-373 -240,-410 -15,-12 -25,-9 -25,15 0,4 3,10 7,16 51,70 158,263 320,575 159,312 272,517 336,614 52,74 101,114 150,114 0,0 3,0 3,0l12 0c0,0 15,-4 40,-7 24,-6 46,-6 58,-3 -52,-55 -131,-162 -242,-324 -269,-397 -403,-697 -403,-896 0,-79 24,-125 79,-137 3,0 9,-4 16,-4 45,0 107,43 177,129 70,86 131,183 177,290 25,59 37,111 37,156z"
     id="path2533" /></glyph>
   <glyph
   unicode="a"
   horiz-adv-x="804"
   id="glyph2539"><path
     d="M828 623c-27,-27 -64,-91 -116,-186 -49,-98 -79,-171 -92,-220 -9,-49 -12,-89 -12,-117 0,-30 9,-45 34,-45 27,0 64,27 107,79 64,80 125,180 186,306 6,15 13,21 22,24 12,3 18,0 18,-15 0,-6 -3,-15 -6,-27 -144,-285 -260,-428 -358,-428 -43,0 -79,24 -107,67 -15,21 -21,52 -21,91 0,37 6,83 21,141 -122,-199 -226,-299 -315,-299 -24,0 -49,9 -67,24 -46,33 -71,89 -71,165 0,150 68,303 196,459 74,85 165,140 272,168 28,6 58,9 83,9 70,0 131,-24 180,-73 16,-16 19,-31 13,-46 -7,-15 -19,-22 -40,-19 -15,56 -52,83 -110,83 -64,0 -147,-52 -242,-156 -55,-64 -107,-134 -156,-217 -58,-101 -88,-180 -88,-239 0,-61 18,-91 58,-91 91,0 211,140 360,425 28,55 52,95 74,116 18,18 46,31 76,31 6,0 22,-4 46,-7 25,-6 43,-6 55,-3z"
     id="path2537" /></glyph>
   <glyph
   unicode="y"
   horiz-adv-x="917"
   id="glyph2543"><path
     d="M-186 -727c-67,0 -119,15 -156,42 -37,31 -55,65 -55,104 0,40 12,86 34,135 39,80 113,141 217,190 76,36 179,70 308,101 131,33 214,52 250,64 55,97 120,268 196,516 -89,-156 -162,-266 -223,-328 -58,-64 -119,-94 -181,-94 -82,0 -131,33 -143,104 -6,9 -10,24 -6,45 3,22 6,37 6,46 0,9 6,25 15,46 9,22 15,37 18,46 16,34 31,61 43,83 -24,0 -30,12 -21,36l43 80c52,101 94,183 128,254 15,30 46,49 89,49l140 0c-3,-4 -9,-10 -21,-19 -28,-18 -49,-40 -64,-64 -55,-95 -123,-232 -205,-407 -34,-73 -52,-125 -52,-159 0,-33 6,-58 18,-73 12,-12 28,-19 46,-19 31,0 70,31 122,92 110,126 230,327 361,600 19,30 46,49 89,49l125 0c-39,-28 -70,-65 -95,-107 -21,-40 -45,-98 -73,-172 -27,-70 -61,-165 -101,-287 -43,-119 -73,-208 -95,-268 144,45 254,118 334,228 33,46 79,132 143,254 10,21 22,27 28,24 9,-6 12,-12 12,-18 0,-9 -12,-37 -37,-89 -24,-52 -51,-98 -76,-143 -27,-43 -61,-89 -101,-135 -43,-46 -89,-82 -137,-106 -52,-28 -120,-58 -205,-89 -117,-214 -236,-370 -355,-474 -113,-91 -232,-137 -363,-137zm-135 229c-15,-34 -24,-64 -24,-95 0,-27 12,-49 34,-64 21,-15 49,-24 79,-24 89,0 184,45 283,137 101,92 190,190 270,294l49 85c-254,-67 -412,-113 -477,-143 -97,-43 -168,-107 -214,-190z"
     id="path2541" /></glyph>
   <glyph
   unicode="t"
   horiz-adv-x="459"
   id="glyph2547"><path
     d="M73 183c0,128 61,339 183,639l-119 0c-6,0 -12,6 -15,12 -3,10 0,19 3,28 3,6 9,12 18,12l138 0c55,119 107,220 153,303 49,82 91,137 131,165 40,28 68,43 86,43 18,0 30,-3 40,-6 33,-16 52,-52 52,-104 0,-52 -19,-116 -52,-193 -37,-73 -71,-144 -104,-208l110 0c6,0 12,-6 15,-12 3,-9 0,-18 -3,-28 -3,-6 -9,-12 -18,-12l-132 0c-85,-141 -186,-269 -306,-379l-55 -236c-3,-18 -6,-36 -6,-58 0,-18 6,-36 15,-58 13,-18 28,-30 52,-30 28,0 55,9 89,27 74,55 153,171 242,349 6,12 15,21 21,24 9,3 15,3 15,-6 3,-6 0,-18 -6,-33 -49,-104 -91,-181 -119,-224 -83,-134 -171,-201 -266,-201 -46,0 -86,18 -116,54 -31,34 -46,80 -46,132zm462 691c101,181 153,306 153,376 0,31 -7,46 -16,46 -18,0 -43,-24 -79,-73 -34,-49 -92,-165 -171,-349l113 0zm-31 -52l-107 0c-18,-43 -58,-144 -125,-306 85,86 162,190 232,306z"
     id="path2545" /></glyph>
   <glyph
   unicode="v"
   horiz-adv-x="602"
   id="glyph2551"><path
     d="M743 801l-13 -40c-76,-245 -149,-422 -217,-535 -95,-162 -195,-241 -302,-241 -86,0 -129,39 -129,122 0,64 25,162 70,293 -15,-24 -27,-34 -36,-24 -9,9 -9,18 -6,30l42 80c28,58 43,119 43,177 0,61 -12,95 -36,107 91,15 146,22 162,22 15,0 24,-7 27,-19 3,-12 6,-27 6,-43 0,-91 -24,-205 -73,-330 -49,-128 -74,-214 -74,-257 0,-43 10,-70 22,-76 15,-6 27,-9 43,-9 39,0 85,30 134,94 52,65 101,162 153,288 -21,49 -34,92 -34,128 0,37 7,71 16,101 27,86 70,141 131,162 13,6 22,6 34,6 24,0 37,-12 37,-36z"
     id="path2549" /></glyph>
  </font>
  <font
   id="FontID0"
   fullFontName="Dosis"
   fontVariant="normal"
   fontWeight="400"
   horiz-origin-x="0"
   horiz-origin-y="0"
   horiz-adv-x="1024"
   vert-origin-x="512"
   vert-origin-y="768"
   vert-adv-y="1024">
	<font-face
   font-family="Dosis"
   id="font-face2554">
	</font-face>
   <missing-glyph
   id="missing-glyph2558"><path
     d="M0 0z"
     id="path2556" /></missing-glyph>
   <glyph
   unicode="."
   horiz-adv-x="170"
   id="glyph2562"><path
     d="M39 42c0,16 3,26 13,36 10,10 19,16 32,16 10,0 20,-6 30,-16 10,-10 13,-23 13,-36 0,-13 -3,-23 -13,-33 -10,-9 -20,-15 -30,-15 -13,0 -22,6 -32,15 -10,10 -13,20 -13,33z"
     id="path2560" /></glyph>
   <glyph
   unicode=","
   horiz-adv-x="170"
   id="glyph2566"><path
     d="M39 39c0,13 3,26 13,32 10,10 19,17 32,17 10,0 20,-7 30,-13 10,-10 13,-20 13,-36 0,-10 -13,-45 -36,-110 -7,-7 -13,-13 -23,-13 -3,0 -10,3 -16,6 -3,3 -7,10 -7,13 0,3 0,7 0,10l20 52c-16,9 -26,22 -26,42z"
     id="path2564" /></glyph>
   <glyph
   unicode="("
   horiz-adv-x="298"
   id="glyph2570"><path
     d="M62 150l0 434c0,49 16,92 55,128 36,36 79,55 131,55 19,0 33,-9 33,-29 0,-10 -4,-16 -10,-23 -4,-6 -10,-10 -17,-10 -39,0 -68,-9 -91,-36 -23,-26 -36,-55 -36,-88l0 -431c0,-26 6,-49 23,-69 13,-16 29,-26 46,-32 16,-7 39,-7 58,-7 17,0 27,-13 27,-33 0,-18 -14,-28 -36,-28 -53,0 -98,13 -131,45 -36,29 -52,72 -52,124z"
     id="path2568" /></glyph>
   <glyph
   unicode="-"
   horiz-adv-x="412"
   id="glyph2574"><path
     d="M52 238c0,10 3,16 6,23 4,3 10,6 20,6l258 0c7,0 13,-3 16,-6 7,-7 10,-13 10,-23 0,-6 -3,-13 -10,-20 -3,-3 -9,-6 -16,-6l-258 0c-20,0 -26,10 -26,26z"
     id="path2572" /></glyph>
   <glyph
   unicode=")"
   horiz-adv-x="298"
   id="glyph2578"><path
     d="M52 -19c-23,0 -33,10 -33,28 0,20 7,33 23,33 23,0 42,0 59,7 19,6 36,16 49,32 13,20 19,43 19,69l0 431c0,33 -9,62 -32,88 -26,27 -56,36 -95,36 -7,0 -13,4 -16,10 -4,7 -7,13 -7,23 0,20 10,29 33,29 49,0 95,-19 131,-55 35,-36 52,-79 52,-128l0 -434c0,-52 -17,-95 -49,-124 -36,-32 -82,-45 -134,-45z"
     id="path2576" /></glyph>
   <glyph
   unicode=" "
   horiz-adv-x="200"
   id="glyph2582"><path
     d="M44 182"
     id="path2580" /></glyph>
   <glyph
   unicode="4"
   horiz-adv-x="443"
   id="glyph2586"><path
     d="M6 199c0,6 3,13 7,16l248 494c6,13 20,19 33,19 6,0 13,0 19,-6 10,-7 13,-13 13,-20 0,-3 -3,-6 -3,-13l-232 -454 196 0 0 193c0,16 10,26 33,26 10,0 16,-4 23,-7 6,-3 9,-10 9,-19l0 -193 56 0c7,0 13,-3 20,-10 3,-7 6,-13 6,-20 0,-9 -3,-16 -10,-22 -3,-7 -9,-10 -16,-10l-56 0 0 -147c0,-7 -3,-13 -9,-20 -7,-3 -13,-6 -23,-6 -10,0 -17,3 -23,6 -7,7 -10,13 -10,20l0 147 -255 0c-16,0 -26,10 -26,26z"
     id="path2584" /></glyph>
   <glyph
   unicode="3"
   horiz-adv-x="486"
   id="glyph2590"><path
     d="M29 160c0,13 0,19 6,26 4,6 14,6 23,6 23,0 33,-9 33,-26 0,-29 13,-52 36,-75 20,-26 56,-36 108,-36 95,0 144,49 144,150l0 17c0,45 -13,78 -40,101 -26,23 -58,33 -104,33 -17,0 -26,10 -26,29 0,20 9,30 26,30 42,0 72,6 95,26 19,19 29,52 29,98 0,45 -10,78 -29,98 -20,23 -49,32 -92,32 -46,0 -78,-13 -98,-32 -20,-23 -29,-46 -29,-75 0,-20 -10,-33 -33,-33 -13,0 -20,3 -26,10 -3,3 -7,16 -7,29 0,16 4,33 10,49 3,16 13,33 26,52 13,17 36,33 62,43 26,13 59,16 98,16 121,0 183,-59 183,-176 0,-43 -9,-79 -23,-105 -16,-29 -35,-49 -58,-62 65,-26 101,-82 101,-163l0 -17c0,-75 -20,-127 -59,-160 -39,-36 -88,-51 -150,-51 -66,0 -118,15 -154,51 -36,33 -52,72 -52,115z"
     id="path2588" /></glyph>
   <glyph
   unicode="9"
   horiz-adv-x="516"
   id="glyph2594"><path
     d="M42 163c0,23 10,33 33,33 23,0 32,-10 32,-30 0,-33 13,-59 43,-82 26,-19 59,-29 98,-29 98,0 144,49 144,154l0 150c-33,-43 -82,-65 -151,-65 -134,0 -199,65 -199,199l0 23c0,75 20,127 56,163 39,33 88,49 150,49 65,0 114,-16 153,-49 36,-36 56,-88 56,-163l0 -307c0,-76 -20,-131 -56,-164 -39,-36 -91,-51 -153,-51 -62,0 -115,15 -150,51 -36,33 -56,72 -56,118zm65 333c0,-52 13,-88 36,-111 26,-23 59,-36 108,-36 95,0 141,46 141,137l0 33c0,52 -13,92 -36,114 -26,27 -62,40 -108,40 -92,0 -141,-53 -141,-154l0 -23z"
     id="path2592" /></glyph>
   <glyph
   unicode="6"
   horiz-adv-x="516"
   id="glyph2598"><path
     d="M58 209l0 307c0,75 20,127 56,163 39,33 88,49 153,49 63,0 115,-16 151,-49 36,-32 55,-75 55,-121 0,-19 -9,-29 -32,-29 -23,0 -33,10 -33,26 0,36 -16,62 -42,82 -27,23 -59,32 -102,32 -95,0 -140,-52 -140,-153l0 -150c32,42 81,65 150,65 134,0 199,-69 199,-199l0 -23c0,-76 -19,-131 -55,-164 -39,-36 -88,-51 -154,-51 -62,0 -114,15 -150,51 -39,33 -56,88 -56,164zm66 -4c0,-101 45,-150 140,-150 95,0 144,49 144,150l0 23c0,98 -49,144 -144,144 -95,0 -140,-42 -140,-134l0 -33z"
     id="path2596" /></glyph>
   <glyph
   unicode="1"
   horiz-adv-x="232"
   id="glyph2602"><path
     d="M13 568c0,13 6,23 16,33l82 114c6,10 13,17 22,17 7,0 17,-4 20,-7 7,-7 10,-13 10,-20l0 -679c0,-7 -3,-13 -10,-20 -6,-3 -13,-6 -23,-6 -10,0 -16,3 -23,6 -6,7 -9,13 -9,20l0 591 -40 -65c-6,-7 -13,-10 -19,-10 -7,0 -13,0 -20,7 -3,6 -6,13 -6,19z"
     id="path2600" /></glyph>
   <glyph
   unicode="7"
   horiz-adv-x="458"
   id="glyph2606"><path
     d="M26 555l0 150c0,7 3,10 9,17 7,6 14,6 20,6l356 0c7,0 13,0 20,-6 6,-7 10,-10 10,-17l0 -88c0,-6 -4,-16 -10,-26l-294 -582c-7,-6 -13,-12 -23,-12 -10,0 -20,3 -30,9 -6,7 -9,13 -9,23 0,3 0,6 3,13l297 572 0 55 -284 0 0 -114c0,-6 -3,-13 -10,-20 -6,-3 -13,-6 -23,-6 -9,0 -16,3 -23,6 -6,7 -9,14 -9,20z"
     id="path2604" /></glyph>
   <glyph
   unicode=":"
   horiz-adv-x="202"
   id="glyph2610"><path
     d="M55 42c0,16 3,26 13,36 10,10 20,16 33,16 10,0 19,-6 29,-16 10,-10 13,-23 13,-36 0,-13 -3,-23 -13,-33 -10,-9 -19,-15 -29,-15 -13,0 -23,6 -33,15 -10,10 -13,20 -13,33zm0 337c0,13 3,26 13,36 10,9 20,13 33,13 10,0 19,-4 29,-13 10,-10 13,-23 13,-36 0,-13 -3,-23 -13,-36 -10,-10 -19,-13 -29,-13 -13,0 -23,3 -33,13 -10,9 -13,23 -13,36z"
     id="path2608" /></glyph>
   <glyph
   unicode="0"
   horiz-adv-x="531"
   id="glyph2614"><path
     d="M58 209l0 307c0,75 17,127 56,163 36,33 88,49 147,49 62,0 111,-16 147,-49 39,-36 59,-88 59,-163l0 -307c0,-76 -20,-131 -59,-164 -36,-36 -85,-51 -147,-51 -59,0 -111,15 -147,51 -39,33 -56,88 -56,164zm66 0c0,-105 45,-154 137,-154 91,0 140,49 140,154l0 307c0,101 -49,153 -140,153 -92,0 -137,-52 -137,-153l0 -307zm104 153c0,10 4,20 10,26 7,7 16,10 26,10 7,0 17,-3 23,-10 3,-6 7,-16 7,-26 0,-10 -4,-16 -7,-26 -6,-6 -16,-10 -23,-10 -10,0 -19,4 -26,10 -6,10 -10,16 -10,26z"
     id="path2612" /></glyph>
   <glyph
   unicode="5"
   horiz-adv-x="473"
   id="glyph2618"><path
     d="M29 163c0,23 10,33 29,33 23,0 36,-10 36,-27 0,-36 13,-65 39,-85 27,-19 59,-29 102,-29 46,0 78,13 104,36 23,26 36,62 36,114l0 20c0,49 -13,85 -36,111 -26,23 -58,36 -104,36l-137 0c-23,0 -36,10 -36,26 0,0 0,3 3,10 0,3 0,7 0,10l19 287c0,17 7,23 20,23l281 0c13,0 20,-10 20,-29 0,-20 -7,-30 -20,-30l-242 0 -16 -241 108 0c62,0 114,-17 150,-49 39,-33 56,-82 56,-154l0 -20c0,-72 -17,-127 -56,-160 -36,-36 -88,-51 -150,-51 -62,0 -115,15 -151,48 -39,33 -55,72 -55,121z"
     id="path2616" /></glyph>
   <glyph
   unicode="2"
   horiz-adv-x="474"
   id="glyph2622"><path
     d="M32 26l0 98c0,29 13,59 36,88 23,29 49,55 82,78l98 72c36,23 62,49 85,82 26,29 36,62 36,91 0,36 -13,66 -36,92 -23,29 -56,42 -98,42 -36,0 -66,-9 -88,-32 -23,-20 -33,-49 -33,-88 0,-7 -3,-14 -10,-17 -6,-6 -16,-10 -26,-10 -20,0 -29,13 -29,43 0,46 16,85 52,118 36,32 82,45 134,45 59,0 108,-16 144,-52 39,-39 55,-82 55,-137 0,-33 -6,-66 -23,-95 -16,-33 -39,-59 -62,-78 -26,-23 -52,-43 -82,-66l-81 -59c-23,-16 -46,-36 -62,-55 -17,-23 -23,-43 -23,-62l0 -62 317 0c6,0 13,-4 16,-10 7,-7 7,-13 7,-23 0,-7 0,-13 -7,-20 -3,-6 -10,-9 -16,-9l-353 0c-7,0 -16,3 -23,6 -7,7 -10,13 -10,20z"
     id="path2620" /></glyph>
   <glyph
   unicode="I"
   horiz-adv-x="217"
   id="glyph2626"><path
     d="M75 26l0 679c0,17 13,23 32,23 23,0 33,-6 33,-23l0 -679c0,-7 -3,-13 -10,-20 -6,-3 -13,-6 -23,-6 -9,0 -16,3 -23,6 -6,7 -9,13 -9,20z"
     id="path2624" /></glyph>
   <glyph
   unicode="C"
   horiz-adv-x="523"
   id="glyph2630"><path
     d="M67 207l0 311c0,72 18,126 59,162 40,36 90,49 153,49 63,0 112,-13 148,-45 36,-36 59,-72 59,-121 0,-14 -5,-27 -9,-32 -5,-4 -14,-9 -27,-9 -18,0 -32,9 -32,27 0,9 -4,18 -4,27 0,14 -5,23 -14,32 -4,13 -13,22 -22,31 -9,9 -23,18 -41,23 -18,4 -36,9 -58,9 -99,0 -144,-50 -144,-153l0 -311c0,-99 49,-153 148,-153 27,0 50,4 68,13 18,5 31,18 40,32 9,13 18,27 18,40 5,9 5,23 9,41 0,13 14,22 32,22 13,0 22,0 27,-9 4,-4 9,-13 9,-31 0,-45 -23,-86 -59,-117 -36,-36 -90,-49 -153,-49 -63,0 -112,17 -148,49 -41,36 -59,90 -59,162z"
     id="path2628" /></glyph>
   <glyph
   unicode="F"
   horiz-adv-x="494"
   id="glyph2634"><path
     d="M76 27l0 680c0,9 5,13 9,18 5,4 14,4 23,4l351 0c9,0 13,0 18,-4 4,-9 9,-14 9,-23 0,-9 -5,-18 -9,-22 -5,-5 -9,-9 -18,-9l-315 0 0 -275 157 0c5,0 14,-5 18,-9 5,-5 5,-14 5,-23 0,-18 -9,-27 -23,-27l-157 0 0 -310c0,-9 -5,-18 -14,-23 -4,-4 -13,-4 -22,-4 -23,0 -32,9 -32,27z"
     id="path2632" /></glyph>
   <glyph
   unicode="J"
   horiz-adv-x="511"
   id="glyph2638"><path
     d="M22 169c0,23 10,33 33,33 23,0 33,-6 33,-26 0,-36 13,-65 39,-88 26,-23 59,-33 105,-33 42,0 78,13 104,36 23,26 36,65 36,118l0 460 -140 0c-10,0 -14,4 -20,10 -3,7 -7,13 -7,20 0,10 4,16 7,23 6,3 10,6 20,6l176 0c20,0 29,-6 29,-23l0 -496c0,-76 -19,-131 -55,-164 -39,-36 -88,-51 -150,-51 -63,0 -115,15 -151,48 -39,33 -59,75 -59,127z"
     id="path2636" /></glyph>
   <glyph
   unicode="L"
   horiz-adv-x="462"
   id="glyph2642"><path
     d="M75 26l0 679c0,17 13,23 32,23 23,0 33,-6 33,-23l0 -643 284 0c17,0 23,-10 23,-33 0,-20 -6,-29 -23,-29l-320 0c-6,0 -13,3 -20,6 -6,7 -9,13 -9,20z"
     id="path2640" /></glyph>
   <glyph
   unicode="K"
   horiz-adv-x="521"
   id="glyph2646"><path
     d="M75 26l0 679c0,17 13,23 32,23 23,0 33,-6 33,-23l0 -353 291 366c3,7 10,10 19,10 10,0 17,-3 23,-10 10,-6 13,-16 13,-22 0,-7 0,-10 -3,-17l-216 -264 246 -370c3,-6 3,-10 3,-13 0,-10 -3,-16 -10,-23 -10,-9 -16,-12 -26,-12 -10,0 -20,6 -26,16l-232 346 -82 -105 0 -228c0,-7 -3,-13 -10,-20 -6,-3 -13,-6 -23,-6 -9,0 -16,3 -23,6 -6,7 -9,13 -9,20z"
     id="path2644" /></glyph>
   <glyph
   unicode="D"
   horiz-adv-x="559"
   id="glyph2650"><path
     d="M75 26l0 679c0,7 3,13 9,17 7,6 14,6 20,6l177 0c65,0 114,-16 153,-49 39,-36 56,-88 56,-163l0 -304c0,-72 -17,-128 -56,-160 -39,-36 -88,-52 -153,-52l-177 0c-6,0 -13,3 -20,6 -6,7 -9,13 -9,20zm65 36l141 0c45,0 81,13 107,36 23,26 36,65 36,114l0 304c0,52 -13,88 -36,114 -26,26 -62,39 -107,39l-141 0 0 -607z"
     id="path2648" /></glyph>
   <glyph
   unicode="B"
   horiz-adv-x="538"
   id="glyph2654"><path
     d="M76 27l0 680c0,9 5,13 9,18 5,4 14,4 23,4l162 0c31,0 58,0 81,-4 22,-5 45,-14 63,-27 18,-9 36,-27 45,-50 9,-22 13,-54 13,-85 0,-45 -4,-77 -22,-109 -14,-27 -36,-45 -63,-58 36,-14 63,-32 76,-59 18,-27 27,-67 27,-112l0 -18c0,-72 -18,-126 -54,-158 -36,-31 -81,-49 -144,-49l-184 0c-14,0 -18,4 -23,9 -9,4 -9,9 -9,18zm63 36l149 0c90,0 139,49 139,144l0 18c0,94 -49,144 -139,144l-149 0 0 -306zm0 360l131 0c49,0 85,13 103,31 23,18 36,55 36,100 0,45 -13,72 -36,90 -27,18 -58,27 -103,27l-131 0 0 -248z"
     id="path2652" /></glyph>
   <glyph
   unicode="A"
   horiz-adv-x="539"
   id="glyph2658"><path
     d="M19 29c0,3 3,3 3,6l210 677c3,16 16,23 35,23 23,0 36,-7 43,-23l206 -680c0,0 0,0 0,-3 3,0 3,0 3,-3 0,-7 -6,-13 -13,-20 -10,-3 -20,-6 -29,-6 -13,0 -20,6 -23,16l-46 153 -278 0 -46 -153c-3,-10 -9,-16 -26,-16 -9,0 -16,3 -26,6 -6,7 -13,13 -13,23zm131 199l238 0 -117 402 -121 -402z"
     id="path2656" /></glyph>
   <glyph
   unicode="N"
   horiz-adv-x="572"
   id="glyph2662"><path
     d="M75 26l0 679c0,17 13,23 32,23 20,0 36,-13 53,-45l271 -530 0 552c0,17 10,23 33,23 22,0 32,-6 32,-23l0 -679c0,-7 -3,-13 -10,-20 -6,-3 -16,-6 -22,-6 -17,0 -33,13 -46,39l-278 539 0 -552c0,-7 -3,-13 -10,-20 -6,-3 -13,-6 -23,-6 -9,0 -16,3 -23,6 -6,7 -9,13 -9,20z"
     id="path2660" /></glyph>
   <glyph
   unicode="E"
   horiz-adv-x="508"
   id="glyph2666"><path
     d="M76 27l0 680c0,9 5,13 9,18 5,4 14,4 23,4l355 0c14,0 23,-9 23,-27 0,-9 0,-18 -5,-22 -4,-5 -13,-9 -18,-9l-319 0 0 -275 153 0c9,0 18,-5 22,-9 5,-5 5,-14 5,-23 0,-18 -9,-27 -27,-27l-153 0 0 -274 319 0c5,0 14,-5 18,-9 5,-9 5,-14 5,-23 0,-22 -9,-31 -23,-31l-355 0c-9,0 -18,4 -23,9 -4,4 -9,9 -9,18z"
     id="path2664" /></glyph>
   <glyph
   unicode="M"
   horiz-adv-x="668"
   id="glyph2670"><path
     d="M75 26l0 672c0,22 11,33 34,33 19,0 36,-16 53,-47l171 -332 172 332c17,31 34,47 54,47 22,0 32,-11 32,-33l0 -672c0,-8 -3,-14 -9,-19 -6,-4 -14,-7 -23,-7 -9,0 -17,3 -23,7 -6,5 -11,11 -11,19l0 562 -165 -315c-8,-14 -17,-20 -27,-20 -10,0 -20,6 -26,20l-165 318 0 -565c0,-8 -3,-14 -11,-19 -6,-4 -14,-7 -22,-7 -9,0 -18,3 -24,7 -7,5 -10,11 -10,19z"
     id="path2668" /></glyph>
   <glyph
   unicode="O"
   horiz-adv-x="551"
   id="glyph2674"><path
     d="M68 209l0 307c0,75 20,127 56,163 39,33 88,49 150,49 65,0 114,-16 154,-49 36,-36 55,-88 55,-163l0 -307c0,-76 -19,-131 -55,-164 -40,-36 -89,-51 -154,-51 -62,0 -111,15 -150,51 -36,33 -56,88 -56,164zm65 0c0,-105 46,-154 141,-154 95,0 144,49 144,154l0 307c0,101 -49,153 -144,153 -95,0 -141,-52 -141,-153l0 -307z"
     id="path2672" /></glyph>
   <glyph
   unicode="H"
   horiz-adv-x="572"
   id="glyph2678"><path
     d="M75 26l0 679c0,17 13,23 32,23 23,0 33,-6 33,-23l0 -297 291 0 0 297c0,17 10,23 33,23 19,0 32,-6 32,-23l0 -679c0,-7 -3,-13 -10,-20 -6,-3 -16,-6 -22,-6 -10,0 -17,3 -23,6 -7,7 -10,13 -10,20l0 323 -291 0 0 -323c0,-7 -3,-13 -10,-20 -6,-3 -13,-6 -23,-6 -9,0 -16,3 -23,6 -6,7 -9,13 -9,20z"
     id="path2676" /></glyph>
   <glyph
   unicode="U"
   horiz-adv-x="566"
   id="glyph2682"><path
     d="M72 207l0 500c0,18 13,22 36,22 18,0 31,-4 31,-22l0 -500c0,-50 14,-90 36,-113 27,-27 63,-40 108,-40 45,0 81,13 108,40 23,23 36,63 36,113l0 500c0,18 9,22 32,22 22,0 36,-4 36,-22l0 -500c0,-72 -23,-126 -59,-162 -40,-36 -90,-49 -153,-49 -63,0 -112,13 -153,49 -40,36 -58,90 -58,162z"
     id="path2680" /></glyph>
   <glyph
   unicode="P"
   horiz-adv-x="526"
   id="glyph2686"><path
     d="M75 26l0 679c0,17 9,23 29,23l183 0c62,0 111,-16 150,-49 36,-36 56,-88 56,-160l0 -10c0,-75 -20,-127 -56,-163 -39,-33 -88,-52 -153,-52l-144 0 0 -268c0,-7 -3,-13 -10,-20 -6,-3 -13,-6 -23,-6 -9,0 -16,3 -23,6 -6,7 -9,13 -9,20zm65 326l144 0c46,0 82,14 104,36 27,27 40,66 40,118l0 10c0,101 -49,153 -144,153l-144 0 0 -317z"
     id="path2684" /></glyph>
   <glyph
   unicode="Y"
   horiz-adv-x="531"
   id="glyph2690"><path
     d="M18 702c0,9 4,14 13,23 5,4 14,4 23,4 13,0 22,-4 27,-18l184 -365 185 365c4,14 13,18 27,18 9,0 18,0 23,-4 9,-9 13,-14 13,-23 0,-4 -4,-9 -4,-18l-208 -396c-4,-5 -4,-5 -4,-9l0 -252c0,-9 0,-14 -9,-18 -5,-5 -14,-9 -23,-9 -9,0 -18,4 -22,9 -9,4 -9,9 -9,18l0 252c0,4 -5,9 -5,9l-207 396c0,9 -4,14 -4,18z"
     id="path2688" /></glyph>
   <glyph
   unicode="R"
   horiz-adv-x="529"
   id="glyph2694"><path
     d="M76 27l0 680c0,13 9,22 23,22l180 0c63,0 117,-13 157,-45 36,-31 59,-81 59,-148 0,-113 -54,-176 -158,-194l153 -297c5,-5 5,-9 5,-14 0,-9 -5,-18 -9,-22 -9,-9 -18,-9 -27,-9 -14,0 -23,9 -36,31l-153 302 -126 0 0 -306c0,-9 -5,-14 -14,-18 -4,-5 -13,-9 -22,-9 -9,0 -18,4 -23,9 -4,4 -9,9 -9,18zm68 364l135 0c99,0 148,45 148,140 0,95 -49,140 -148,140l-135 0 0 -280z"
     id="path2692" /></glyph>
   <glyph
   unicode="Z"
   horiz-adv-x="484"
   id="glyph2698"><path
     d="M22 22c0,9 5,14 9,23l333 626 -301 0c-9,0 -14,4 -18,9 -5,4 -9,13 -9,22 0,9 0,14 4,18 5,9 14,9 23,9l360 0c18,0 27,-4 27,-18 0,-9 -5,-18 -9,-27l-333 -621 328 0c9,0 14,-5 18,-9 5,-9 5,-14 5,-23 0,-9 0,-13 -5,-22 -4,-5 -9,-9 -18,-9l-387 0c-18,0 -27,9 -27,22z"
     id="path2696" /></glyph>
   <glyph
   unicode="T"
   horiz-adv-x="481"
   id="glyph2702"><path
     d="M13 702c0,5 5,14 9,18 5,9 9,9 18,9l401 0c9,0 13,0 18,-9 4,-4 9,-9 9,-18 0,-9 -5,-18 -9,-22 -5,-5 -9,-9 -18,-9l-167 0 0 -644c0,-9 -4,-14 -9,-18 -9,-5 -18,-9 -22,-9 -14,0 -18,4 -27,9 -5,4 -9,9 -9,18l0 644 -167 0c-9,0 -13,4 -18,9 -4,4 -9,13 -9,22z"
     id="path2700" /></glyph>
   <glyph
   unicode="V"
   horiz-adv-x="537"
   id="glyph2706"><path
     d="M19 702c0,7 3,13 13,20 7,6 17,6 26,6 13,0 23,-3 26,-16l183 -611 183 611c7,13 14,16 27,16 9,0 19,-3 26,-6 10,-7 13,-13 13,-20 0,-3 0,-3 0,-3 0,-3 0,-3 0,-3l-209 -677c-4,-16 -17,-25 -40,-25 -22,0 -32,9 -39,25l-209 677c0,0 0,3 0,6z"
     id="path2704" /></glyph>
   <glyph
   unicode="S"
   horiz-adv-x="493"
   id="glyph2710"><path
     d="M35 101c0,6 4,13 10,23 7,9 13,13 20,13 6,0 13,-4 19,-13l30 -30c10,-10 26,-19 46,-29 23,-7 49,-10 75,-10 49,0 85,10 111,33 26,26 39,59 39,104 0,30 -6,56 -19,75 -10,20 -27,36 -46,49 -20,14 -39,23 -66,33l-71 26c-23,10 -46,20 -63,33 -19,13 -36,33 -49,56 -13,22 -16,52 -16,85 0,35 3,65 16,91 13,23 33,43 56,56 20,13 42,22 65,26 23,6 49,10 72,10 43,0 79,-7 115,-17 36,-13 55,-26 55,-46 0,-6 -3,-16 -10,-22 -6,-10 -13,-14 -19,-14 -4,0 -13,4 -23,10 -13,7 -30,13 -49,20 -20,3 -43,6 -69,6 -42,0 -75,-6 -104,-26 -27,-16 -40,-45 -40,-88 0,-29 7,-52 23,-72 17,-19 36,-33 62,-42 23,-10 53,-20 79,-30 29,-13 55,-26 82,-39 22,-13 45,-36 62,-65 16,-30 22,-66 22,-108 0,-69 -19,-121 -55,-154 -39,-36 -92,-51 -154,-51 -58,0 -108,12 -147,35 -39,26 -59,49 -59,72z"
     id="path2708" /></glyph>
   <glyph
   unicode="f"
   horiz-adv-x="304"
   id="glyph2714"><path
     d="M62 26l0 552c0,52 19,95 52,131 36,36 78,55 127,55l23 0c10,0 17,-3 20,-10 6,-6 10,-13 10,-22 0,-7 -4,-14 -10,-20 -3,-7 -10,-10 -20,-10l-16 0c-33,0 -62,-13 -85,-36 -23,-23 -36,-52 -36,-85l0 -108 144 0c6,0 13,-3 16,-9 3,-7 7,-10 7,-20 0,-7 -4,-13 -7,-20 -3,-3 -10,-6 -16,-6l-144 0 0 -392c0,-10 -3,-13 -10,-20 -6,-3 -13,-6 -23,-6 -10,0 -16,3 -23,6 -6,7 -9,10 -9,20z"
     id="path2712" /></glyph>
   <glyph
   unicode="j"
   horiz-adv-x="190"
   id="glyph2718"><path
     d="M-35 -202c0,10 3,16 6,23 7,6 13,10 20,10 28,0 48,9 58,32 9,20 13,53 13,95l0 489c0,7 3,13 9,20 7,3 13,6 23,6 10,0 17,-3 23,-9 7,-4 10,-10 10,-17l0 -489c0,-127 -43,-190 -130,-190 -13,0 -19,4 -26,10 -3,7 -6,13 -6,20zm97 826c-7,9 -13,19 -13,29 0,13 6,23 13,30 9,6 19,13 32,13 13,0 23,-7 30,-13 9,-7 13,-17 13,-30 0,-10 -4,-20 -13,-29 -7,-7 -17,-13 -30,-13 -13,0 -23,6 -32,13z"
     id="path2716" /></glyph>
   <glyph
   unicode="g"
   horiz-adv-x="451"
   id="glyph2722"><path
     d="M26 -98c0,49 26,85 85,107 -40,13 -56,36 -56,69 0,29 16,52 49,72 -36,29 -55,72 -55,124l0 39c0,49 16,88 49,118 29,33 71,46 124,46 45,0 85,-13 117,-40 10,20 20,33 33,46 13,10 26,17 36,17 10,0 16,-4 23,-10 6,-4 6,-10 6,-17 0,-13 -3,-19 -16,-23 -23,-3 -42,-19 -55,-42 19,-23 29,-56 29,-95l0 -36c0,-49 -16,-88 -49,-121 -33,-29 -75,-45 -124,-45 -30,0 -56,6 -79,16 -19,-10 -29,-23 -29,-39 0,-13 6,-23 23,-33 13,-6 32,-10 55,-13 23,-3 49,-7 75,-10 27,-3 53,-10 76,-16 23,-7 42,-19 58,-35 14,-20 23,-43 23,-72 0,-42 -19,-78 -55,-105 -36,-22 -82,-36 -141,-36 -62,0 -111,14 -147,36 -39,23 -55,56 -55,98zm62 7c0,-29 13,-49 36,-69 26,-16 59,-23 101,-23 42,0 75,7 98,23 26,20 36,40 36,69 0,13 -3,26 -10,36 -6,10 -13,16 -23,23 -10,3 -19,10 -36,13 -13,3 -26,6 -39,6 -10,4 -23,4 -42,7l-33 3c-59,-19 -88,-49 -88,-88zm26 368c0,-36 10,-65 29,-85 20,-23 46,-32 79,-32 32,0 59,9 78,32 20,20 30,49 30,85l0 36c0,36 -10,62 -30,85 -19,20 -46,33 -78,33 -33,0 -59,-13 -79,-33 -19,-23 -29,-49 -29,-85l0 -36z"
     id="path2720" /></glyph>
   <glyph
   unicode="n"
   horiz-adv-x="495"
   id="glyph2726"><path
     d="M62 26l0 421c0,7 3,13 9,20 7,3 13,6 23,6 7,0 17,-3 20,-9 6,-4 10,-10 10,-17l0 -46c13,20 29,40 52,56 23,13 52,20 82,20 49,0 91,-17 124,-53 36,-39 55,-81 55,-134l0 -264c0,-7 -3,-13 -13,-20 -6,-3 -13,-6 -23,-6 -6,0 -13,3 -19,6 -7,7 -10,13 -10,20l0 264c0,33 -13,62 -39,89 -23,26 -52,39 -88,39 -30,0 -59,-13 -82,-36 -23,-23 -36,-52 -36,-92l0 -264c0,-7 -3,-13 -10,-20 -6,-3 -13,-6 -23,-6 -10,0 -16,3 -23,6 -6,7 -9,13 -9,20z"
     id="path2724" /></glyph>
   <glyph
   unicode="b"
   horiz-adv-x="483"
   id="glyph2730"><path
     d="M62 26l0 709c0,10 3,13 9,19 7,4 13,7 23,7 10,0 17,-3 23,-7 7,-6 10,-9 10,-19l0 -334c13,23 29,40 52,56 23,13 49,20 82,20 49,0 91,-17 124,-53 36,-39 52,-81 52,-134l0 -107c0,-50 -16,-95 -52,-134 -36,-36 -75,-55 -124,-55 -29,0 -56,6 -82,22 -26,13 -42,33 -52,55l0 -45c0,-7 -3,-13 -10,-20 -6,-3 -13,-6 -23,-6 -10,0 -16,3 -23,6 -6,7 -9,13 -9,20zm65 127c0,-20 13,-39 39,-65 23,-23 52,-33 85,-33 33,0 62,13 85,39 26,26 39,56 39,89l0 107c0,33 -13,62 -39,89 -23,26 -52,39 -88,39 -30,0 -59,-13 -85,-36 -23,-23 -36,-52 -36,-92l0 -137z"
     id="path2728" /></glyph>
   <glyph
   unicode="h"
   horiz-adv-x="495"
   id="glyph2734"><path
     d="M62 26l0 709c0,10 3,13 9,19 7,4 13,7 23,7 10,0 17,-3 23,-7 7,-6 10,-9 10,-19l0 -334c13,20 29,40 52,56 23,13 49,20 79,20 49,0 91,-17 124,-53 36,-39 55,-81 55,-134l0 -264c0,-7 -3,-13 -9,-20 -7,-3 -17,-6 -27,-6 -6,0 -13,3 -19,6 -7,7 -10,13 -10,20l0 264c0,33 -13,62 -39,89 -23,26 -52,39 -85,39 -33,0 -59,-13 -85,-36 -23,-23 -36,-52 -36,-92l0 -264c0,-7 -3,-13 -10,-20 -6,-3 -13,-6 -23,-6 -10,0 -16,3 -23,6 -6,7 -9,13 -9,20z"
     id="path2732" /></glyph>
   <glyph
   unicode="c"
   horiz-adv-x="410"
   id="glyph2738"><path
     d="M45 183l0 107c0,56 17,102 49,134 33,36 82,53 144,53 39,0 72,-7 101,-20 27,-16 40,-29 40,-42 0,-10 -4,-17 -10,-23 -3,-7 -13,-10 -20,-10 -3,0 -10,3 -16,6 -10,7 -23,13 -36,20 -16,7 -36,10 -56,10 -42,0 -75,-13 -98,-36 -23,-20 -32,-52 -32,-92l0 -107c0,-43 9,-72 32,-95 23,-23 56,-33 98,-33 23,0 43,0 59,7 16,6 26,13 36,19 7,7 13,10 20,10 6,0 16,-3 19,-10 7,-6 10,-16 10,-23 0,-16 -13,-29 -42,-45 -27,-13 -62,-19 -105,-19 -62,0 -111,15 -144,51 -32,33 -49,79 -49,138z"
     id="path2736" /></glyph>
   <glyph
   unicode="d"
   horiz-adv-x="484"
   id="glyph2742"><path
     d="M44 182l0 110c0,51 17,95 53,131 35,37 77,56 127,56 31,0 57,-8 80,-22 23,-15 40,-34 51,-56l0 337c0,6 5,13 11,17 6,5 14,6 23,6 9,0 17,-1 23,-6 6,-4 8,-11 8,-17l0 -712c0,-6 -2,-13 -8,-19 -6,-4 -14,-7 -23,-7 -8,0 -14,3 -20,7 -8,6 -11,13 -11,19l0 45c-11,-22 -29,-41 -54,-56 -25,-15 -53,-22 -82,-22 -48,0 -90,19 -125,58 -34,37 -53,81 -53,131zm65 1c0,-34 13,-63 37,-89 25,-26 54,-40 87,-40 32,0 62,12 85,35 25,25 37,45 37,64l0 139c0,37 -11,68 -36,91 -24,23 -52,35 -85,35 -34,0 -63,-14 -88,-40 -24,-25 -37,-54 -37,-86l0 -109z"
     id="path2740" /></glyph>
   <glyph
   unicode="i"
   horiz-adv-x="190"
   id="glyph2746"><path
     d="M62 624c-7,9 -13,19 -13,29 0,13 6,23 13,30 9,6 19,13 32,13 13,0 23,-7 30,-13 9,-7 13,-17 13,-30 0,-10 -4,-20 -13,-29 -7,-7 -17,-13 -30,-13 -13,0 -23,6 -32,13zm0 -598l0 421c0,7 3,13 9,17 7,6 13,9 23,9 10,0 17,-3 23,-9 7,-4 10,-10 10,-17l0 -421c0,-7 -3,-13 -10,-20 -6,-3 -13,-6 -23,-6 -10,0 -16,3 -23,6 -6,7 -9,13 -9,20z"
     id="path2744" /></glyph>
   <glyph
   unicode="m"
   horiz-adv-x="778"
   id="glyph2750"><path
     d="M62 26l0 421c0,7 3,13 9,17 7,6 13,9 23,9 10,0 17,-3 23,-9 7,-4 10,-10 10,-17l0 -46c10,23 29,40 52,56 23,13 49,20 79,20 32,0 62,-7 85,-27 26,-19 45,-42 58,-71 17,32 36,55 66,75 26,16 55,23 85,23 46,0 85,-17 117,-49 33,-36 49,-79 49,-138l0 -264c0,-7 -3,-13 -9,-20 -7,-3 -13,-6 -23,-6 -7,0 -17,3 -23,6 -7,7 -10,13 -10,20l0 264c0,40 -10,69 -33,92 -22,23 -49,36 -78,36 -33,0 -59,-13 -82,-36 -26,-23 -36,-52 -36,-88l0 -268c0,-17 -9,-26 -32,-26 -23,0 -33,9 -33,26l0 268c0,36 -10,65 -33,88 -23,23 -49,36 -81,36 -30,0 -59,-13 -82,-36 -23,-23 -36,-52 -36,-92l0 -264c0,-7 -3,-13 -10,-20 -6,-3 -13,-6 -23,-6 -10,0 -16,3 -23,6 -6,7 -9,13 -9,20z"
     id="path2748" /></glyph>
   <glyph
   unicode="l"
   horiz-adv-x="206"
   id="glyph2754"><path
     d="M71 26l0 712c0,7 4,13 7,16 6,4 16,7 23,7 10,0 19,-3 26,-7 6,-3 10,-9 10,-16l0 -712c0,-7 -4,-13 -10,-20 -7,-3 -16,-6 -26,-6 -7,0 -13,3 -20,6 -6,7 -10,13 -10,20z"
     id="path2752" /></glyph>
   <glyph
   unicode="e"
   horiz-adv-x="457"
   id="glyph2758"><path
     d="M45 183l0 111c0,49 17,94 56,130 36,36 82,53 134,53 52,0 95,-17 131,-53 39,-32 55,-75 55,-127 0,-20 0,-36 -6,-46 -4,-10 -10,-19 -20,-23 -10,-6 -20,-10 -26,-10 -10,0 -20,-3 -33,-3l-225 0 0 -36c0,-39 13,-72 42,-95 26,-22 62,-35 108,-35 23,0 42,3 59,9 16,7 29,13 39,20 10,6 16,13 23,13 6,0 13,-7 19,-13 4,-7 7,-13 7,-20 0,-13 -13,-29 -42,-42 -30,-16 -66,-22 -108,-22 -62,0 -115,15 -154,51 -39,36 -59,82 -59,138zm66 81l199 0c20,0 33,3 39,7 7,3 10,13 10,26 0,33 -13,62 -36,88 -23,26 -52,39 -88,39 -36,0 -66,-13 -88,-36 -27,-26 -36,-52 -36,-85l0 -39z"
     id="path2756" /></glyph>
   <glyph
   unicode="k"
   horiz-adv-x="456"
   id="glyph2762"><path
     d="M63 26l0 712c0,8 3,13 9,17 5,5 13,8 22,8 11,0 18,-3 25,-8 6,-4 9,-9 9,-17l0 -487 244 218c6,3 11,5 14,5 9,0 17,-3 23,-9 8,-6 11,-13 11,-22 0,-8 -3,-14 -8,-17l-147 -130 173 -253c4,-5 5,-9 5,-14 0,-6 -5,-14 -11,-22 -7,-7 -15,-10 -24,-10 -8,0 -14,4 -21,12l-168 247 -91 -82 0 -148c0,-6 -3,-13 -9,-19 -7,-4 -14,-7 -25,-7 -8,0 -16,3 -22,7 -6,6 -9,13 -9,19z"
     id="path2760" /></glyph>
   <glyph
   unicode="o"
   horiz-adv-x="468"
   id="glyph2766"><path
     d="M43 182l0 110c0,51 20,94 57,131 37,37 82,56 133,56 51,0 96,-19 134,-56 37,-36 56,-80 56,-131l0 -110c0,-50 -19,-94 -57,-131 -39,-39 -82,-58 -133,-58 -51,0 -94,19 -133,58 -37,37 -57,81 -57,131zm66 1c0,-34 11,-64 36,-91 25,-26 54,-38 88,-38 34,0 63,12 88,38 25,27 37,57 37,91l0 109c0,32 -12,61 -37,86 -25,26 -54,40 -88,40 -34,0 -63,-14 -88,-40 -25,-25 -36,-54 -36,-86l0 -109z"
     id="path2764" /></glyph>
   <glyph
   unicode="a"
   horiz-adv-x="437"
   id="glyph2770"><path
     d="M29 124c0,52 20,88 59,111 39,19 98,29 173,29l52 0 0 23c0,36 -10,69 -29,95 -20,26 -49,39 -88,39 -27,0 -53,-3 -72,-13 -23,-10 -33,-16 -36,-16 -7,0 -13,3 -20,13 -3,6 -6,13 -6,23 0,13 16,22 42,32 29,13 62,17 95,17 62,0 108,-17 137,-53 26,-36 43,-81 43,-140l0 -258c0,-7 -4,-13 -10,-20 -7,-3 -13,-6 -23,-6 -10,0 -16,3 -23,6 -3,7 -7,13 -7,20l0 42c-45,-49 -94,-74 -150,-74 -39,0 -72,9 -98,32 -26,23 -39,55 -39,98zm65 6c0,-29 7,-49 23,-62 16,-13 39,-19 66,-19 29,0 58,9 88,32 29,23 42,49 42,72l0 62 -42 0c-26,0 -49,0 -69,-3 -16,0 -36,-3 -52,-10 -20,-6 -33,-13 -43,-26 -9,-13 -13,-26 -13,-46z"
     id="path2768" /></glyph>
   <glyph
   unicode="x"
   horiz-adv-x="409"
   id="glyph2774"><path
     d="M26 26c0,3 0,6 3,13l134 199 -131 193c-3,6 -6,13 -6,13 0,10 6,16 13,23 10,6 19,10 26,10 10,0 16,-4 23,-10l117 -183 118 183c3,6 10,10 20,10 6,0 16,-4 26,-10 10,-7 13,-13 13,-23 0,-3 0,-7 -3,-13l-134 -193 134 -199c3,-4 6,-10 6,-13 0,-10 -6,-17 -13,-23 -10,-6 -16,-9 -26,-9 -10,0 -16,3 -20,9l-121 186 -121 -186c-6,-6 -13,-9 -22,-9 -7,0 -17,3 -23,9 -10,6 -13,13 -13,23z"
     id="path2772" /></glyph>
   <glyph
   unicode="z"
   horiz-adv-x="400"
   id="glyph2778"><path
     d="M22 26c0,6 4,16 10,23l245 366 -219 0c-6,0 -13,3 -16,9 -7,4 -10,10 -10,20 0,6 3,13 10,20 3,6 10,9 16,9l281 0c7,0 13,-3 20,-9 3,-4 7,-10 7,-17 0,-10 -4,-19 -10,-26l-245 -366 241 0c7,0 14,0 17,-6 6,-7 10,-14 10,-23 0,-7 -4,-13 -10,-17 -3,-6 -10,-9 -17,-9l-300 0c-10,0 -17,3 -20,6 -6,7 -10,13 -10,20z"
     id="path2776" /></glyph>
   <glyph
   unicode="y"
   horiz-adv-x="420"
   id="glyph2782"><path
     d="M13 448c0,7 5,15 13,21 9,7 18,10 28,10 12,0 20,-5 23,-14l137 -367 129 367c4,9 10,14 21,14 10,0 19,-3 27,-10 9,-6 13,-14 13,-23 0,-3 0,-6 -1,-8l-155 -420 -18 -47c-3,-9 -9,-25 -20,-48 -10,-23 -17,-38 -25,-49l-25 -39c-12,-17 -23,-29 -32,-37 -11,-6 -23,-14 -39,-20 -14,-6 -29,-9 -45,-9 -20,0 -29,9 -29,29 0,22 6,31 20,31 31,0 59,18 85,56 26,37 46,83 60,136l-163 417c-2,4 -4,7 -4,10z"
     id="path2780" /></glyph>
   <glyph
   unicode="p"
   horiz-adv-x="483"
   id="glyph2786"><path
     d="M62 -205l0 652c0,7 3,13 9,17 7,6 13,9 23,9 10,0 17,-3 23,-9 7,-4 10,-10 10,-17l0 -46c10,20 29,40 52,56 23,13 49,20 79,20 52,0 91,-17 127,-53 36,-39 52,-81 52,-134l0 -107c0,-50 -16,-95 -52,-134 -36,-36 -75,-55 -124,-55 -29,0 -56,6 -78,22 -27,13 -43,33 -56,55l0 -276c0,-7 -3,-13 -10,-17 -6,-6 -13,-10 -23,-10 -10,0 -16,4 -23,10 -6,4 -9,10 -9,17zm65 358c0,-20 13,-39 39,-65 23,-23 52,-33 85,-33 33,0 59,13 85,39 26,26 39,56 39,89l0 107c0,33 -13,62 -39,89 -26,26 -55,39 -88,39 -33,0 -59,-13 -85,-36 -23,-23 -36,-52 -36,-92l0 -137z"
     id="path2784" /></glyph>
   <glyph
   unicode="v"
   horiz-adv-x="420"
   id="glyph2790"><path
     d="M15 445c0,7 3,15 12,21 8,5 17,8 27,8 12,0 20,-5 23,-14l133 -360 131 355c6,13 14,19 23,19 8,0 17,-3 27,-8 9,-6 13,-14 13,-20 0,-6 -1,-11 -3,-17l-162 -422c-3,-10 -14,-14 -29,-14 -16,0 -27,4 -30,14l-162 422c-1,5 -3,9 -3,16z"
     id="path2788" /></glyph>
   <glyph
   unicode="s"
   horiz-adv-x="384"
   id="glyph2794"><path
     d="M32 65c0,6 3,13 7,19 6,7 10,10 16,10 7,0 13,-3 23,-10 10,-9 23,-16 42,-26 20,-6 43,-9 66,-9 36,0 62,6 78,19 17,13 26,30 26,49 0,26 -9,46 -26,59 -16,13 -36,26 -62,33 -23,6 -46,13 -72,23 -23,6 -46,19 -62,35 -16,20 -26,43 -26,76 0,36 13,68 42,94 27,27 66,40 118,40 33,0 62,-4 92,-13 26,-14 42,-23 42,-36 0,-7 -3,-13 -10,-20 -3,-10 -10,-13 -19,-13 0,0 -13,3 -36,13 -23,10 -46,16 -69,16 -33,0 -59,-9 -75,-26 -16,-13 -26,-32 -26,-52 0,-20 10,-36 26,-46 20,-13 39,-23 62,-29 26,-7 49,-13 75,-23 23,-7 46,-20 62,-43 17,-22 23,-49 23,-85 0,-39 -13,-71 -42,-94 -26,-23 -66,-32 -118,-32 -42,0 -82,6 -111,22 -29,16 -46,33 -46,49z"
     id="path2792" /></glyph>
   <glyph
   unicode="r"
   horiz-adv-x="331"
   id="glyph2798"><path
     d="M63 26l0 423c0,6 3,13 9,17 5,5 13,6 22,6 9,0 17,-1 23,-6 6,-6 9,-11 9,-18l0 -50c11,23 30,42 53,57 23,16 49,24 80,24l36 0c6,0 12,-3 18,-10 5,-6 8,-12 8,-21 0,-8 -3,-16 -8,-22 -6,-6 -12,-8 -18,-8l-36 0c-34,0 -65,-14 -91,-41 -28,-27 -40,-62 -40,-105l0 -246c0,-6 -3,-13 -9,-19 -7,-4 -14,-7 -25,-7 -8,0 -16,3 -22,7 -6,6 -9,13 -9,19z"
     id="path2796" /></glyph>
   <glyph
   unicode="t"
   horiz-adv-x="297"
   id="glyph2802"><path
     d="M60 146l0 527c0,7 4,13 11,17 6,5 14,7 21,7 10,0 17,-2 23,-7 7,-4 11,-10 11,-17l0 -201 129 0c6,0 12,-3 17,-7 4,-6 6,-13 6,-20 0,-8 -2,-14 -6,-19 -5,-6 -11,-8 -17,-8l-129 0 0 -270c0,-33 6,-56 20,-68 14,-12 37,-20 73,-20l28 0c8,0 15,-2 21,-8 5,-6 8,-14 8,-22 0,-7 -3,-15 -8,-21 -6,-6 -13,-9 -21,-9l-28 0c-105,0 -159,49 -159,146z"
     id="path2800" /></glyph>
   <glyph
   unicode="u"
   horiz-adv-x="495"
   id="glyph2806"><path
     d="M58 179l0 268c0,7 4,10 10,17 7,6 13,9 23,9 7,0 13,-3 23,-9 6,-7 10,-10 10,-17l0 -264c0,-36 9,-66 36,-92 23,-26 52,-36 88,-36 33,0 62,10 88,36 23,26 36,56 36,92l0 264c0,7 3,13 10,17 6,6 13,9 23,9 10,0 16,-3 23,-9 6,-4 9,-10 9,-17l0 -268c0,-49 -19,-91 -55,-130 -39,-36 -85,-55 -134,-55 -52,0 -98,19 -134,55 -39,39 -56,81 -56,130z"
     id="path2804" /></glyph>
   <glyph
   unicode=""
   horiz-adv-x="400"
   id="glyph2810"><path
     d="M22 26c0,6 4,16 10,23l245 366 -219 0c-6,0 -13,3 -16,9 -7,4 -10,10 -10,20 0,6 3,13 10,20 3,6 10,9 16,9l281 0c7,0 13,-3 20,-9 3,-4 7,-10 7,-17 0,-10 -4,-19 -10,-26l-245 -366 241 0c7,0 14,0 17,-6 6,-7 10,-14 10,-23 0,-7 -4,-13 -10,-17 -3,-6 -10,-9 -17,-9l-300 0c-10,0 -17,3 -20,6 -6,7 -10,13 -10,20zm43 683c0,3 0,9 3,13 3,6 10,6 13,6 7,0 13,0 17,-3l101 -95 98 95c3,3 10,3 13,3 6,0 10,0 13,-6 7,-4 7,-10 7,-13 0,-10 -4,-17 -14,-23l-98 -92c-9,-6 -16,-10 -19,-10 -10,0 -16,4 -23,10l-98 92c-10,6 -13,13 -13,23z"
     id="path2808" /></glyph>
   <glyph
   unicode=""
   horiz-adv-x="384"
   id="glyph2814"><path
     d="M32 65c0,6 3,13 7,19 6,7 10,10 16,10 7,0 13,-3 23,-10 10,-9 23,-16 42,-26 20,-6 43,-9 66,-9 36,0 62,6 78,19 17,13 26,30 26,49 0,26 -9,46 -26,59 -16,13 -36,26 -62,33 -23,6 -46,13 -72,23 -23,6 -46,19 -62,35 -16,20 -26,43 -26,76 0,36 13,68 42,94 27,27 66,40 118,40 33,0 62,-4 92,-13 26,-14 42,-23 42,-36 0,-7 -3,-13 -10,-20 -3,-10 -10,-13 -19,-13 0,0 -13,3 -36,13 -23,10 -46,16 -69,16 -33,0 -59,-9 -75,-26 -16,-13 -26,-32 -26,-52 0,-20 10,-36 26,-46 20,-13 39,-23 62,-29 26,-7 49,-13 75,-23 23,-7 46,-20 62,-43 17,-22 23,-49 23,-85 0,-39 -13,-71 -42,-94 -26,-23 -66,-32 -118,-32 -42,0 -82,6 -111,22 -29,16 -46,33 -46,49zm23 644c0,3 0,9 3,13 7,6 10,6 17,6 3,0 9,0 13,-3l101 -95 98 95c3,3 10,3 16,3 4,0 10,0 13,-6 4,-4 4,-10 4,-13 0,-10 -4,-17 -10,-23l-101 -92c-10,-6 -17,-10 -20,-10 -6,0 -13,4 -20,10l-101 92c-10,6 -13,13 -13,23z"
     id="path2812" /></glyph>
   <glyph
   unicode="È"
   horiz-adv-x="522"
   id="glyph2818"><path
     d="M68 209l0 307c0,72 20,127 59,160 39,36 88,52 150,52 62,0 115,-16 151,-45 36,-33 55,-72 55,-121 0,-17 -3,-27 -6,-30 -7,-6 -17,-10 -27,-10 -22,0 -32,10 -32,27 0,9 -3,19 -3,29 -4,6 -7,20 -14,29 -6,13 -13,23 -22,33 -10,7 -23,13 -43,20 -16,6 -36,9 -59,9 -94,0 -144,-52 -144,-153l0 -307c0,-105 50,-154 148,-154 29,0 52,3 71,10 17,10 30,19 40,36 9,13 16,26 16,36 3,10 7,23 10,39 0,20 13,26 32,26 10,0 20,-3 27,-6 3,-7 6,-17 6,-33 0,-49 -19,-88 -55,-121 -40,-33 -89,-48 -154,-48 -62,0 -111,15 -150,51 -36,36 -56,88 -56,164zm72 751c0,7 3,13 7,17 3,3 6,6 13,6 6,0 9,-3 13,-6l101 -92 98 92c7,3 10,6 16,6 4,0 10,-3 13,-6 4,-4 7,-10 7,-17 0,-6 -7,-16 -13,-23l-101 -88c-7,-6 -13,-10 -20,-10 -7,0 -13,4 -20,10l-101 88c-10,7 -13,17 -13,23z"
     id="path2816" /></glyph>
   <glyph
   unicode="À"
   horiz-adv-x="529"
   id="glyph2822"><path
     d="M76 27l0 680c0,13 9,22 23,22l180 0c63,0 117,-13 157,-45 36,-31 59,-81 59,-148 0,-113 -54,-176 -158,-194l153 -297c5,-5 5,-9 5,-14 0,-9 -5,-18 -9,-22 -9,-9 -18,-9 -27,-9 -14,0 -23,9 -36,31l-153 302 -126 0 0 -306c0,-9 -5,-14 -14,-18 -4,-5 -13,-9 -22,-9 -9,0 -18,4 -23,9 -4,4 -9,9 -9,18zm68 364l135 0c99,0 148,45 148,140 0,95 -49,140 -148,140l-135 0 0 -280zm67 482c0,9 5,14 14,18l112 63c0,0 5,0 5,0 9,0 13,0 18,-9 4,-4 9,-9 9,-18 0,-9 -5,-18 -14,-22l-108 -59c0,0 -4,0 -9,0 -4,0 -13,0 -18,9 -4,5 -9,9 -9,18z"
     id="path2820" /></glyph>
   <glyph
   unicode="Á"
   horiz-adv-x="540"
   id="glyph2826"><path
     d="M22 27c0,4 0,4 0,9l207 680c5,13 18,22 41,22 22,0 36,-9 40,-22l208 -685c0,0 0,0 0,0 0,-4 0,-4 0,-4 0,-9 -5,-14 -14,-18 -4,-5 -14,-9 -27,-9 -9,0 -18,4 -23,18l-45 153 -279 0 -45 -153c-4,-14 -13,-18 -27,-18 -9,0 -18,4 -27,9 -4,4 -9,9 -9,18zm126 202l243 0 -121 401 -122 -401zm54 644c0,9 5,14 9,18l113 63c4,0 4,0 9,0 9,0 13,0 18,-9 4,-4 4,-9 4,-18 0,-9 -4,-18 -9,-22l-108 -59c-4,0 -4,0 -9,0 -9,0 -13,0 -18,9 -9,5 -9,9 -9,18z"
     id="path2824" /></glyph>
   <glyph
   unicode="Í"
   horiz-adv-x="218"
   id="glyph2830"><path
     d="M31 873c0,9 5,14 14,18l112 63c0,0 5,0 5,0 9,0 13,0 18,-9 4,-4 9,-9 9,-18 0,-9 -5,-18 -14,-22l-108 -59c0,0 -4,0 -9,0 -4,0 -13,0 -18,9 -4,5 -9,9 -9,18zm45 -846l0 680c0,18 9,22 32,22 22,0 36,-4 36,-22l0 -680c0,-9 -5,-14 -14,-18 -4,-5 -13,-9 -22,-9 -9,0 -18,4 -23,9 -4,4 -9,9 -9,18z"
     id="path2828" /></glyph>
   <glyph
   unicode="Ì"
   horiz-adv-x="508"
   id="glyph2834"><path
     d="M76 27l0 680c0,9 5,13 9,18 5,4 14,4 23,4l355 0c14,0 23,-9 23,-27 0,-9 0,-18 -5,-22 -4,-5 -13,-9 -18,-9l-319 0 0 -275 153 0c9,0 18,-5 22,-9 5,-5 5,-14 5,-23 0,-18 -9,-27 -27,-27l-153 0 0 -274 319 0c5,0 14,-5 18,-9 5,-9 5,-14 5,-23 0,-22 -9,-31 -23,-31l-355 0c-9,0 -18,4 -23,9 -4,4 -9,9 -9,18zm68 936c0,5 4,9 9,14 0,4 4,9 13,9 5,0 9,-5 14,-5l99 -94 99 94c4,0 9,5 18,5 4,0 9,-5 13,-9 0,-5 5,-9 5,-14 0,-9 -5,-18 -14,-22l-99 -90c-9,-9 -18,-9 -22,-9 -5,0 -14,0 -18,9l-104 90c-9,4 -13,13 -13,22z"
     id="path2832" /></glyph>
   <glyph
   unicode="Ý"
   horiz-adv-x="531"
   id="glyph2838"><path
     d="M18 702c0,9 4,14 13,23 5,4 14,4 23,4 13,0 22,-4 27,-18l184 -365 185 365c4,14 13,18 27,18 9,0 18,0 23,-4 9,-9 13,-14 13,-23 0,-4 -4,-9 -4,-18l-208 -396c-4,-5 -4,-5 -4,-9l0 -252c0,-9 0,-14 -9,-18 -5,-5 -14,-9 -23,-9 -9,0 -18,4 -22,9 -9,4 -9,9 -9,18l0 252c0,4 -5,9 -5,9l-207 396c0,9 -4,14 -4,18zm175 171c0,9 5,14 9,18l113 63c4,0 4,0 9,0 9,0 13,0 18,-9 4,-4 4,-9 4,-18 0,-9 -4,-18 -9,-22l-108 -59c-4,0 -9,0 -9,0 -9,0 -13,0 -18,9 -9,5 -9,9 -9,18z"
     id="path2836" /></glyph>
   <glyph
   unicode="è"
   horiz-adv-x="410"
   id="glyph2842"><path
     d="M45 183l0 107c0,56 17,102 49,134 33,36 82,53 144,53 39,0 72,-7 101,-20 27,-16 40,-29 40,-42 0,-10 -4,-17 -10,-23 -3,-7 -13,-10 -20,-10 -3,0 -10,3 -16,6 -10,7 -23,13 -36,20 -16,7 -36,10 -56,10 -42,0 -75,-13 -98,-36 -23,-20 -32,-52 -32,-92l0 -107c0,-43 9,-72 32,-95 23,-23 56,-33 98,-33 23,0 43,0 59,7 16,6 26,13 36,19 7,7 13,10 20,10 6,0 16,-3 19,-10 7,-6 10,-13 10,-23 0,-13 -13,-29 -42,-42 -27,-16 -62,-22 -105,-22 -62,0 -111,15 -144,51 -32,33 -49,79 -49,138zm36 526c0,3 3,9 7,13 3,6 10,6 13,6 6,0 13,0 16,-3l98 -95 101 95c4,3 7,3 14,3 6,0 9,0 13,-6 3,-4 6,-10 6,-13 0,-10 -3,-17 -13,-23l-101 -92c-7,-6 -13,-10 -20,-10 -6,0 -13,4 -19,10l-102 92c-6,6 -13,13 -13,23z"
     id="path2840" /></glyph>
   <glyph
   unicode="é"
   horiz-adv-x="458"
   id="glyph2846"><path
     d="M44 182l0 113c0,49 19,92 56,130 39,35 83,54 136,54 51,0 94,-17 131,-53 37,-34 56,-77 56,-130 0,-18 -3,-34 -6,-45 -5,-10 -13,-18 -22,-23 -9,-4 -18,-7 -26,-9 -8,-2 -19,-3 -34,-3l-226 0 0 -36c0,-40 14,-71 44,-95 27,-24 64,-36 109,-36 22,0 42,5 59,11 17,6 31,12 39,20 9,6 17,9 21,9 8,0 14,-3 20,-11 7,-6 8,-12 8,-20 0,-14 -14,-28 -42,-43 -29,-15 -65,-22 -108,-22 -63,0 -114,17 -154,51 -41,36 -61,82 -61,138zm65 83l201 0c20,0 33,2 40,7 7,4 10,12 10,26 0,34 -13,63 -36,88 -23,25 -54,37 -90,37 -34,0 -63,-11 -88,-36 -24,-23 -37,-52 -37,-85l0 -37zm50 354c0,8 3,14 11,17l112 62c2,2 5,3 8,3 6,0 12,-3 17,-9 5,-5 6,-12 6,-19 0,-10 -3,-18 -12,-23l-107 -57c-3,-2 -6,-2 -9,-2 -8,0 -12,2 -19,8 -4,6 -7,13 -7,20z"
     id="path2844" /></glyph>
   <glyph
   unicode="ì"
   horiz-adv-x="457"
   id="glyph2850"><path
     d="M45 183l0 111c0,49 17,94 56,130 36,36 82,53 134,53 52,0 95,-17 131,-53 39,-32 55,-75 55,-127 0,-20 0,-36 -6,-46 -4,-10 -10,-19 -20,-23 -10,-6 -20,-10 -26,-10 -10,0 -20,-3 -33,-3l-225 0 0 -36c0,-39 13,-72 42,-95 26,-22 62,-35 108,-35 23,0 42,3 59,9 16,7 29,13 39,20 10,6 16,13 23,13 6,0 13,-7 19,-13 4,-7 7,-13 7,-20 0,-13 -13,-29 -42,-42 -30,-16 -66,-22 -108,-22 -62,0 -115,15 -154,51 -39,36 -59,82 -59,138zm56 526c0,3 0,9 6,13 4,6 7,6 13,6 7,0 10,0 13,-3l102 -95 98 95c3,3 10,3 16,3 3,0 10,0 13,-6 4,-4 4,-10 4,-13 0,-10 -4,-17 -10,-23l-102 -92c-9,-6 -16,-10 -19,-10 -7,0 -13,4 -20,10l-101 92c-10,6 -13,13 -13,23zm10 -445l199 0c20,0 33,3 39,7 7,3 10,13 10,26 0,33 -13,62 -36,88 -23,26 -52,39 -88,39 -36,0 -66,-13 -88,-36 -27,-26 -36,-52 -36,-85l0 -39z"
     id="path2848" /></glyph>
   <glyph
   unicode="á"
   horiz-adv-x="437"
   id="glyph2854"><path
     d="M29 124c0,52 20,88 59,111 39,19 98,29 173,29l52 0 0 23c0,36 -10,69 -29,95 -20,26 -49,39 -88,39 -27,0 -53,-3 -72,-13 -23,-10 -33,-16 -36,-16 -7,0 -13,3 -20,13 -3,6 -6,13 -6,23 0,13 16,22 42,36 29,9 62,13 95,13 62,0 108,-17 137,-53 26,-36 43,-81 43,-140l0 -258c0,-7 -4,-13 -10,-20 -7,-3 -13,-6 -23,-6 -10,0 -16,3 -23,6 -3,7 -7,13 -7,20l0 42c-45,-49 -94,-74 -150,-74 -39,0 -72,9 -98,32 -26,23 -39,55 -39,98zm65 6c0,-29 7,-49 23,-62 16,-13 39,-19 66,-19 29,0 58,9 88,32 29,23 42,49 42,72l0 62 -42 0c-26,0 -49,0 -69,-3 -16,0 -36,-3 -52,-10 -20,-6 -33,-13 -43,-26 -9,-13 -13,-26 -13,-46zm39 487c0,10 4,16 10,20l111 59c4,3 7,3 10,3 7,0 13,-3 17,-7 3,-6 6,-13 6,-19 0,-13 -3,-20 -13,-23l-105 -59c-3,0 -6,0 -9,0 -7,0 -13,0 -20,7 -7,6 -7,13 -7,19z"
     id="path2852" /></glyph>
   <glyph
   unicode="í"
   horiz-adv-x="191"
   id="glyph2858"><path
     d="M21 619c0,8 5,14 11,17l113 62c1,2 4,3 8,3 7,0 13,-3 17,-9 4,-5 7,-12 7,-19 0,-10 -4,-18 -12,-23l-107 -57c-3,-2 -6,-2 -11,-2 -6,0 -12,2 -18,8 -5,6 -8,13 -8,20zm42 -593l0 423c0,6 3,13 9,17 5,5 13,6 22,6 11,0 18,-1 25,-6 6,-4 9,-11 9,-17l0 -423c0,-6 -3,-13 -11,-19 -6,-4 -14,-7 -23,-7 -8,0 -16,3 -22,7 -6,6 -9,13 -9,19z"
     id="path2856" /></glyph>
   <glyph
   unicode="ø"
   horiz-adv-x="330"
   id="glyph2862"><path
     d="M26 709c0,3 3,9 6,13 3,6 7,6 13,6 7,0 10,0 17,-3l98 -95 98 95c6,3 9,3 16,3 7,0 10,0 13,-6 3,-4 7,-10 7,-13 0,-10 -4,-17 -13,-23l-102 -92c-6,-6 -13,-10 -19,-10 -7,0 -13,4 -20,10l-101 92c-7,6 -13,13 -13,23zm36 -683l0 421c0,7 3,13 9,17 7,6 13,9 23,9 10,0 17,-3 23,-9 7,-4 10,-10 10,-17l0 -49c10,23 29,39 52,56 23,16 49,23 79,23l36 0c6,0 13,-4 19,-7 3,-6 7,-13 7,-23 0,-6 -4,-16 -7,-19 -6,-7 -13,-10 -19,-10l-36 0c-33,0 -66,-13 -92,-43 -26,-26 -39,-62 -39,-104l0 -245c0,-7 -3,-13 -10,-20 -6,-3 -13,-6 -23,-6 -10,0 -16,3 -23,6 -6,7 -9,13 -9,20z"
     id="path2860" /></glyph>
   <glyph
   unicode="ù"
   horiz-adv-x="495"
   id="glyph2866"><path
     d="M58 179l0 268c0,7 4,10 10,17 7,6 13,9 23,9 7,0 13,-3 23,-9 6,-7 10,-10 10,-17l0 -264c0,-36 9,-66 36,-92 23,-26 52,-36 88,-36 33,0 62,10 88,36 23,26 36,56 36,92l0 264c0,7 3,13 10,17 6,6 13,9 23,9 10,0 16,-3 23,-9 6,-4 9,-10 9,-17l0 -268c0,-49 -19,-91 -55,-130 -39,-36 -85,-55 -134,-55 -52,0 -98,19 -134,55 -39,39 -56,81 -56,130zm95 494c0,26 10,45 30,65 16,20 39,29 62,29 26,0 49,-9 65,-29 20,-20 29,-39 29,-65 0,-23 -9,-46 -29,-66 -16,-19 -39,-29 -65,-29 -23,0 -46,10 -62,29 -20,20 -30,43 -30,66zm33 0c0,-17 6,-30 19,-43 13,-13 27,-19 43,-19 13,0 29,6 39,19 13,13 20,26 20,43 0,16 -7,29 -20,39 -10,13 -26,20 -39,20 -16,0 -33,-7 -43,-20 -13,-10 -19,-23 -19,-39z"
     id="path2864" /></glyph>
   <glyph
   unicode="ý"
   horiz-adv-x="419"
   id="glyph2870"><path
     d="M13 447c0,7 6,17 13,20 9,6 19,10 29,10 10,0 20,-4 23,-13l134 -366 131 366c3,9 9,13 23,13 6,0 16,-4 26,-10 6,-3 13,-13 13,-20 0,-6 0,-6 -4,-10l-153 -418 -20 -48c-3,-10 -10,-26 -19,-49 -10,-20 -17,-36 -23,-49l-26 -39c-13,-17 -23,-26 -33,-36 -10,-7 -23,-13 -36,-20 -16,-6 -33,-10 -46,-10 -19,0 -29,10 -29,30 0,23 6,33 19,33 30,0 59,16 85,55 27,36 46,82 59,136l-163 415c0,4 -3,7 -3,10zm130 170c0,10 4,16 10,20l114 59c0,3 4,3 7,3 7,0 13,-3 16,-7 7,-6 7,-13 7,-19 0,-13 -3,-20 -10,-23l-108 -59c-3,0 -6,0 -10,0 -6,0 -13,0 -19,7 -3,6 -7,13 -7,19z"
     id="path2868" /></glyph>
  </font>
</defs>
</svg>
